Torrent Details For "Colette 2018 1080p WEB-DL DD 5 1 x264 [MW]"

Colette 2018 1080p WEB-DL DD 5 1 x264 [MW]

To download this torrent, you need a BitTorrent client: Vuze or BTGuard
Download this torrent
Download using Magnet Link

Health:
Seeds: 48
Leechers: 51
Completed: 99 
Last Checked: 06-12-2018 16:56:54

Uploader Reputation points : 5222
External: Torrent



BTGuard - BitTorrent Anonymously


Write a Review for the Uploader:   20   Say Thanks with one good review:


Details
Name:Colette 2018 1080p WEB-DL DD 5 1 x264 [MW]
Description:
 
General
Format : Matroska
Format version : Version 4 / Version 2
File size : 1.79 GiB
Duration : 1 h 51 min
Overall bit rate : 2 299 kb/s
 Video
ID : 1
Format : AVC
Format/Info : Advanced Video Codec
Format profile : [email protected]  Format settings : CABAC / 4 Ref Frames
Format settings, CABAC : Yes
Format settings, RefFrames : 4 frames
Codec ID : V_MPEG4/ISO/AVC
Duration : 1 h 51 min
Bit rate : 2 000 kb/s
Width : 1 920 pixels
Height : 800 pixels
Display aspect ratio : 2.40:1
Frame rate mode : Constant
Frame rate : 24.000 FPS
Color space : YUV
Chroma subsampling : 4:2:0
Bit depth : 8 bits
Scan type : Progressive
Bits/(Pixel*Frame) : 0.054
Stream size : 1.49 GiB (83%)
Writing library : x264 core 155 r2901 7d0ff22
Default : Yes
Forced : No
 Audio
ID : 2
Format : AC-3
Format/Info : Audio Coding 3
Codec ID : A_AC3
Duration : 1 h 51 min
Bit rate mode : Constant
Bit rate : 384 kb/s
Channel(s) : 6 channels
Channel positions : Front: L C R, Side: L R, LFE
Sampling rate : 48.0 kHz
Frame rate : 31.250 FPS (1536 SPF)
Bit depth : 16 bits
Compression mode : Lossy
Stream size : 307 MiB (17%)
Language : English
Service kind  : Complete Main
Default : Yes
Forced : No


 Click To View Image  http://pichub.site/image/cx1oy               http://pichub.site/image/cx9Wb               http://pichub.site/image/cxTV0               http://pichub.site/image/cxFUV               http://pichub.site/image/cxQ1T               http://pichub.site/image/cxbRN        
 
YouTube Video:
Category:Movies
Language:English  English
Total Size:1.79 GB
Info Hash:AA2FE029869FDF6740DFF86FFBAE992B5C7E67A1
Added By:MovieFreak Verified UploaderMovie Pirate
Date Added:06-12-2018 08:49:52
Torrent Status:Torrent Verified


Ratings:Not Yet Rated (Log in to rate it)


Tracker:
udp://tracker.coppersurfer.tk:6969/announce

This Torrent also has backup trackers
URLSeedersLeechersCompleted
udp://tracker.coppersurfer.tk:6969/announce121328
udp://tracker.pirateparty.gr:6969/announce121328
udp://tracker.tiny-vps.com:6969/announce6610
udp://9.rarbg.to:2730/announce8817
udp://tracker.opentrackr.org:1337/announce101116
udp://tracker.leechers-paradise.org:6969/announce000
udp://public.popcorn-tracker.org:6969/announce000
udp://tracker.vanitycore.co:6969/announce000


File List: 



Warning! Do not Download Torrents Without a VPN!
Your IP Address is .   Location is
Your Internet Provider and Government can track your torrent Activity! Hide your IP ADDRESS with a VPN!
We strongly recommend using SpyOFF VPN to anonymize your Torrenting.It's FREE!
START YOUR FREE TRIAL NOW!


Comments
No comments still posted




Manteaux en cuir véritable | Polytrol 20 L Ravive Carrosserie Plastique Peinture Alu Chrome Gelcoat Marbre | D.Y.N. Freaks