Torrent Details For "A Fistful Of Lead 2018 1080p WEB-DL DD 5 1 x264 [MW]"

A Fistful Of Lead 2018 1080p WEB-DL DD 5 1 x264 [MW]

To download this torrent, you need a BitTorrent client: Vuze or BTGuard
Download this torrent
Download using Magnet Link

Health:
Seeds: 43
Leechers: 41
Completed: 165 
Last Checked: 06-12-2018 16:56:25

Uploader Reputation points : 5234
External: Torrent



BTGuard - BitTorrent Anonymously


Write a Review for the Uploader:   20   Say Thanks with one good review:


Details
Name:A Fistful Of Lead 2018 1080p WEB-DL DD 5 1 x264 [MW]
Description:
 
 General
Format : Matroska
Format version : Version 4 / Version 2
File size : 1.63 GiB
Duration : 1 h 26 min
Overall bit rate : 2 699 kb/s
 Video
ID : 1
Format : AVC
Format/Info : Advanced Video Codec
Format profile : [email protected]  Format settings : CABAC / 4 Ref Frames
Format settings, CABAC : Yes
Format settings, RefFrames : 4 frames
Codec ID : V_MPEG4/ISO/AVC
Duration : 1 h 26 min
Bit rate : 2 400 kb/s
Width : 1 920 pixels
Height : 816 pixels
Display aspect ratio : 2.35:1
Frame rate mode : Constant
Frame rate : 23.976 (24000/1001) FPS
Color space : YUV
Chroma subsampling : 4:2:0
Bit depth : 8 bits
Scan type : Progressive
Bits/(Pixel*Frame) : 0.064
Stream size : 1.39 GiB (86%)
Writing library : x264 core 155 r2901 7d0ff22
Default : Yes
Forced : No
 Audio
ID : 2
Format : AC-3
Format/Info : Audio Coding 3
Codec ID : A_AC3
Duration : 1 h 26 min
Bit rate mode : Constant
Bit rate : 384 kb/s
Channel(s) : 6 channels
Channel positions : Front: L C R, Side: L R, LFE
Sampling rate : 48.0 kHz
Frame rate : 31.250 FPS (1536 SPF)
Bit depth : 16 bits
Compression mode : Lossy
Stream size : 237 MiB (14%)
Language  : English
Service kind : Complete Main
Default : Yes
Forced : No
 Text
ID : 3
Format : UTF-8
Codec ID : S_TEXT/UTF8
Codec ID/Info : UTF-8 Plain Text
Duration : 1 h 21 min
Bit rate : 54 b/s
Count of elements : 1071
Stream size : 32.3 KiB (0%)
Title : English [SDH]
Language : English
Default : No
Forced : No


 Click To View Image  http://pichub.site/image/cxuZj               http://pichub.site/image/cxNOr               http://pichub.site/image/cxv6Q               http://pichub.site/image/cxLhd               http://pichub.site/image/cx0fv               http://pichub.site/image/cxrr9
   
YouTube Video:
Category:Movies
Language:English  English
Total Size:1.63 GB
Info Hash:BE2F0449E7F1D7FAB408909C73CC8D7A7A8F45EC
Added By:MovieFreak Verified UploaderMovie Pirate
Date Added:06-12-2018 08:00:06
Torrent Status:Torrent Verified


Ratings:Not Yet Rated (Log in to rate it)


Tracker:
udp://tracker.coppersurfer.tk:6969/announce

This Torrent also has backup trackers
URLSeedersLeechersCompleted
udp://tracker.coppersurfer.tk:6969/announce8943
udp://tracker.pirateparty.gr:6969/announce8943
udp://tracker.tiny-vps.com:6969/announce6514
udp://9.rarbg.to:2730/announce7536
udp://tracker.opentrackr.org:1337/announce81023
udp://tracker.leechers-paradise.org:6969/announce000
udp://public.popcorn-tracker.org:6969/announce000
udp://tracker.vanitycore.co:6969/announce636


File List: 



Warning! Do not Download Torrents Without a VPN!
Your IP Address is .   Location is
Your Internet Provider and Government can track your torrent Activity! Hide your IP ADDRESS with a VPN!
We strongly recommend using SpyOFF VPN to anonymize your Torrenting.It's FREE!
START YOUR FREE TRIAL NOW!


Comments
No comments still posted




Essay of Computer Lab - 454 Words | Videogiochi | HDRip Doing Money